Advanced Search
Latest News
23-Feb-24 100s of Pirate Sites Go Dark as .TV Domains Placed on ServerHold

More News on   Torrentfreak








"Kho Gaye Hum Kahan 2023 1080p NF WEBRip x265 DDP5.1 Atmos ESub..."



Previous Torrent
Napoleon.2023.720p.AMZN.WEBRip.900MB.x264-GalaxyRG[TGx]
Next Torrent
Roadkill.2024.720p.AMZN.WEBRip.800MB.x264-GalaxyRG[TGx]

  
Complete Name :Kho Gaye Hum Kahan 2023 1080p NF WEBRip x265 DDP5.1 Atmos ESub - SP3LL
Download torrent:  Kho Gaye Hum Kahan 2023 1080p NF WEBRip x265 DDP5.1 Atmos ESub....torrent
Ratings: (Please Log in to rate it)
Info Hash:26230da62564afa6465ccf9f221992506fcf0173
Category:Movie  > Bollywood
Torrent language:Hindi  
Seeds | Leech:12  |  6
Complete: 498
Health:
Total Size:3.60 GB
Downloaded:71 Times
Added By:       KillingStuff ... View All Uploads Of This User
Torrent status: Torrent Is Verified (Verified By KillingStuff )
Date Added:12-01-2024 12:37:pm | Last Edit:  21-07-2024 11:08:pm
Main Technical Comments



Release Title
Kho Gaye Hum Kahan 2023 1080p NF WEBRip x265 DDP5.1 Atmos ESub - SP3LL


IMDB Link
https://www.imdb.com/title/tt15434074/








General
Complete name : Kho Gaye Hum Kahan 2023 1080p NF WEBRip x265 DDP5.1 Atmos ESub - SP3LL.mkv
Format : Matroska
Format version : Version 4
File size : 3.60 GiB
Duration : 2 h 14 min
Overall bit rate : 3 817 kb/s
Movie name : Kho Gaye Hum Kahan 2023 1080p NF WEBRip x265 DDP5.1 Atmos ESub - SP3LL
Encoded date : UTC 2024-01-01 16:10:14
Writing application : mkvmerge v74.0.0 ('You Oughta Know') 64-bit
Writing library : libebml v1.4.4 + libmatroska v1.7.1
Cover : Yes
Attachments : cover.jpg

Video
ID : 1
Format : HEVC
Format/Info : High Efficiency Video Coding
Format profile : Main 10@L4.1@High
Codec ID : V_MPEGH/ISO/HEVC
Duration : 2 h 14 min
Bit rate : 3 046 kb/s
Width : 1 920 pixels
Height : 816 pixels
Display aspect ratio : 2.35:1
Frame rate mode : Variable
Frame rate : 24.000 FPS
Color space : YUV
Chroma subsampling : 4:2:0
Bit depth : 10 bits
Bits/(Pixel*Frame) : 0.081
Stream size : 2.87 GiB (80%)
Default : Yes
Forced : No
Color range : Limited
Color primaries : BT.709
Transfer characteristics : BT.709
Matrix coefficients : BT.709

Audio
ID : 2
Format : E-AC-3 JOC
Format/Info : Enhanced AC-3 with Joint Object Coding
Commercial name : Dolby Digital Plus with Dolby Atmos
Codec ID : A_EAC3
Duration : 2 h 14 min
Bit rate mode : Constant
Bit rate : 768 kb/s
Channel(s) : 6 channels
Channel layout : L R C LFE Ls Rs
Sampling rate : 48.0 kHz
Frame rate : 31.250 FPS (1536 SPF)
Compression mode : Lossy
Stream size : 741 MiB (20%)
Language : Hindi
Service kind : Complete Main
Default : Yes
Forced : No
Complexity index : 16
Number of dynamic objects : 15
Bed channel count : 1 channel
Bed channel configuration : LFE

Text #1
ID : 3
Format : UTF-8
Codec ID : S_TEXT/UTF8
Codec ID/Info : UTF-8 Plain Text
Duration : 2 h 8 min
Bit rate : 58 b/s
Frame rate : 0.228 FPS
Count of elements : 1756
Stream size : 55.5 KiB (0%)
Language : English
Default : No
Forced : No

Text #2
ID : 4
Format : UTF-8
Codec ID : S_TEXT/UTF8
Codec ID/Info : UTF-8 Plain Text
Duration : 2 h 8 min
Bit rate : 78 b/s
Frame rate : 0.284 FPS
Count of elements : 2201
Stream size : 74.0 KiB (0%)
Language : English
Default : No
Forced : No

Menu
00:00:00.000 : en:Part 01
02:10:03.450 : en:Credits
........................................................................



Trackers:
http://open.tracker.ink:6969/announce

Kho Gaye Hum Kahan 2023 1080p NF WEBRip x265 DDP5.1 Atmos ESub - SP3LL 
Comments:
No comments still posted
Home   Latest Torrent   Today's Torrents   Upload A Torrent   Top 100   F.A.Q   Site Rules   Contact Us   220xd.site is in compliance with Copyrights   Page Generated In 0.012256 secs.   2018-2019 www.220xd.site